Genres: Sci-Fi MoviesComedyActionAdventureCrimeThrillerHorrorAnimationFamilyFantasyDramaMysteryRomance
Years: NEW202019181716151413121110090807060504030201001999989796959493929190OlderTV Shows

Buy Premium Rapidgator Account From Here

BRRIP Miracle on 34th Street (1994)

Top rated & popular movies of 1994

BRRIP Miracle on 34th Street (1994)

Postby ASN » Sun Dec 06, 2015 10:14 pm

Miracle on 34th Street (1994)
Image

Details :
[RATING] ===== [ 6.5/10 from 30121 votes ]
[GENRE] ===== [ Family, Fantasy ]
[Director] ===== [ Les Mayfield ]
[Writer] ===== [ Valentine Davies ]
[STARS] ===== [ Richard Attenborough , Elizabeth Perkins , Dylan McDermott , JT Walsh , James Remar , Jane Leeves , Simon Jones , William Windom , Mara Wilson , Robert Prosky , Kathrine Narducci , Mary McCormack , Alvin Greenman , Allison Janney , Greg Noonan ]
[PLOT] ===== [ Miracle on 34th Street is a movie starring Richard Attenborough, Elizabeth Perkins, and Dylan McDermott. A lawyer and a little girl must prove that a man claiming to be Santa Claus is the real thing. ]


MPAA Rating : PG

More Info : IMDb Link

Subtitles : SubScene , OpenSubtitles


Samples:
Image
Image
Image

720P SHQ BRRIP Quality

Release Nfo :
Miracle on 34th Street (1994) BluRay 720p 800MB Ganool.mkv 798.93 Mb

Duration: 01:54:00.56, start: 0.000000, bitrate: 979 kb/s
Stream #0:0: Video: h264 (High), yuv420p, 1280x692 [SAR 1:1 DAR 320:173], 23.98 fps, 23.98 tbr, 1k tbn, 47.95 tbc (default)
Stream #0:1(eng): Audio: aac, 48000 Hz, stereo, s16 (default)

DOWNLOAD Links :
Image Rapidgator.net

No Password/Captcha

Support Us By Saying Thanks
Image Please leave a reply here


ASN
Site Admin
 
Posts: 7817
Joined: Wed Feb 06, 2013 7:50 am

 

Please, consider helping us keeping this site alive & clean by Buying Premium Rapidgator Account From Here

 

Loading...

Re: Miracle on 34th Street (1994)

Postby Malenfant2 » Tue Dec 04, 2018 4:39 am

Could you please re-up 1Fichier?

Thank you!
Malenfant2
 
Posts: 1
Joined: Mon May 23, 2016 4:05 am


Return to 1994 Movies

Who is online

Users browsing this forum: No registered users and 1 guest