Genres: Sci-Fi MoviesComedyActionAdventureCrimeThrillerHorrorAnimationFamilyFantasyDramaMysteryRomance
Years: NEW2019181716151413121110090807060504030201001999989796959493929190OlderTV Shows
The site is now completely ad-free but we now need you support by buying new premium accounts through our links to keep it alive... we'll entirely depend on that now


BRRIP Miracle on 34th Street (1994)

Top rated & popular movies of 1994
  • Advertisement

If you wish to help us, please buy a NEW Keep2Share or RAPIDGATOR account from the download links in this page



BRRIP Miracle on 34th Street (1994)

Postby ASN » Sun Dec 06, 2015 10:14 pm

Miracle on 34th Street (1994)
Image

Details :
[RATING] ===== [ 6.4/10 from 23,334 Votes ]
[GENRE] ===== [ Family , Fantasy ]
[Director] ===== [ Les Mayfield ]
[Writer] ===== [ Valentine Davies (story),George Seaton,George Seaton (screenplay),John Hughes (screenplay) ]
[STARS] ===== [ Richard Attenborough , Elizabeth Perkins , Dylan McDermott , JT Walsh , James Remar , Jane Leeves , Simon Jones , William Windom , Mara Wilson , Robert Prosky , Kathrine Narducci , Mary McCormack , Alvin Greenman , Allison Janney , Greg Noonan ]
[PLOT] ===== [ A lawyer and a little girl must prove that a man claiming to be Santa Claus is the real thing. ]


Country : Image ( USA )

MPAA Rating : PG

More Info : Image IMDb Link

Subtitles : SubScene , OpenSubtitles


Samples:
Image
Image
Image

720P SHQ BRRIP Quality

Release Nfo :
Miracle on 34th Street (1994) BluRay 720p 800MB Ganool.mkv 798.93 Mb

Duration: 01:54:00.56, start: 0.000000, bitrate: 979 kb/s
Stream #0:0: Video: h264 (High), yuv420p, 1280x692 [SAR 1:1 DAR 320:173], 23.98 fps, 23.98 tbr, 1k tbn, 47.95 tbc (default)
Stream #0:1(eng): Audio: aac, 48000 Hz, stereo, s16 (default)

DOWNLOAD Links :

Support Us By Saying Thanks
Image Please leave a reply here


ASN
Site Admin
 
Posts: 7637
Joined: Wed Feb 06, 2013 7:50 am
Loading...

Re: Miracle on 34th Street (1994)

Postby Malenfant2 » Tue Dec 04, 2018 4:39 am

Could you please re-up 1Fichier?

Thank you!
Malenfant2
 
Posts: 1
Joined: Mon May 23, 2016 4:05 am


Return to 1994 Movies

Who is online

Users browsing this forum: No registered users and 1 guest